Ralph.Breaks.the.Internet.2018.720p.WEB-DL.x265.HEVCBay

seeders: 9
leechers: 10
updated:
Added by g3m696 in Movies > HEVC/x265

Download Fast Safe Anonymous
movies, software, shows...
Summary:

Taking place six years following the events of the first film, the story will center on Ralph's adventures in the Internet data space when a Wi-Fi router gets plugged into the arcade as he must find a replacement part to fix Sugar Rush.

Files

  • Ralph.Breaks.the.Internet.2018.720p.WEB-DL.x265.HEVCBay.com.mkv (450.7 MB)

Description

hevcbay.com

Code:

General
Unique ID : 95893924222467901246410171337007997145 (0x48247F7DE0969DDCCD15BF52ADA0A0D9)
Complete name : Ralph.Breaks.the.Internet.2018.720p.WEB-DL.x265.HEVCBay.com.mkv Format : Matroska
Format version : Version 4
File size : 451 MiB
Duration : 1 h 53 min
Overall bit rate : 555 kb/s
Movie name : Ralph.Breaks.the.Internet.2018.720p.WEB-DL.x265.HEVCBay.com.mkv
Encoded date : UTC 2019-02-12 00:58:30
Writing application : hevcbay
Writing library : hevcbay.com / Lavf58.22.100
Comment : Encoded by hevcbay.com
ENCODED-BY : hevcbay.com
Video
ID : 1 Format : HEVC
Format/Info : High Efficiency Video Coding
Format profile : [email protected]@Main
Codec ID : V_MPEGH/ISO/HEVC
Duration : 1 h 53 min
Bit rate : 504 kb/s
Width : 1 280 pixels
Height : 536 pixels
Display aspect ratio : 2.40:1 Frame rate mode : Constant
Frame rate : 23.976 FPS
Original frame rate : 24.000 FPS Color space : YUV
Chroma subsampling : 4:2:0
Bit depth : 8 bits
Bits/(Pixel*Frame) : 0.031
Stream size : 409 MiB (91%)
Writing library : Lavc58.40.100 libx265
Language : English
Default : Yes
Forced : No Color range : Limited

Audio
ID : 2
Format : AAC LC SBR PS
Format/Info : Advanced Audio Codec Low Complexity with Spectral Band Replication and Parametric Stereo Commercial name : HE-AACv2
Format settings : NBC
Codec ID : A_AAC-29
Duration : 1 h 52 min
Bit rate : 48.0 kb/s
Channel(s) : 2 channels
Channel layout : C
Sampling rate : 48.0 kHz
Frame rate : 23.438 FPS (2048 SPF)
Compression mode : Lossy
Delay relative to video : -148 ms
Stream size : 39.9 MiB (9%)
Writing library : Lavc58.40.100 libfdk_aac
Language : English
Default : Yes
Forced : No






Related Torrents

torrent name size uploader age seed leech
1.8 GB YTSAGx 9
days
9141 3962
959.6 MB YTSAGx 9
days
7469 3501
1.8 GB YTSAGx 4
days
2674 1671
956.9 MB YTSAGx 4
days
2079 837
1.6 GB Silmarillion 1
month
1727 1837


Download torrent
450.7 MB
seeders:9
leechers:10
Ralph.Breaks.the.Internet.2018.720p.WEB-DL.x265.HEVCBay


Trackers

tracker name
udp://tracker.coppersurfer.tk:6969/announce
udp://tracker.leechers-paradise.org:6969/announce
udp://tracker.opentrackr.org:1337/announce
udp://tracker.internetwarriors.net:1337/announce
http://tracker.internetwarriors.net:1337/announce
udp://9.rarbg.to:2710/announce
udp://exodus.desync.com:6969/announce
udp://explodie.org:6969/announce
http://explodie.org:6969/announce
http://tracker3.itzmx.com:6961/announce
udp://tracker2.itzmx.com:6961/announce
udp://tracker1.itzmx.com:8080/announce
udp://tracker.torrent.eu.org:451/announce
udp://tracker.tiny-vps.com:6969/announce
udp://thetracker.org:80/announce
udp://open.stealth.si:80/announce
udp://open.demonii.si:1337/announce
udp://ipv4.tracker.harry.lu:80/announce
udp://denis.stalker.upeer.me:6969/announce
udp://bt.xxx-tracker.com:2710/announce
http://tracker2.itzmx.com:6961/announce
http://tracker1.itzmx.com:8080/announce
udp://tracker.port443.xyz:6969/announce
udp://tracker.cyberia.is:6969/announce
http://tracker.port443.xyz:6969/announce
udp://tracker1.wasabii.com.tw:6969/announce
udp://tracker.uw0.xyz:6969/announce
udp://tracker.moeking.me:6969/announce
udp://tracker.dler.org:6969/announce
udp://retracker.lanta-net.ru:2710/announce
http://tracker4.itzmx.com:2710/announce
http://tracker1.wasabii.com.tw:6969/announce
http://open.acgnxtracker.com:80/announce
http://0d.kebhana.mx:443/announce
udp://zephir.monocul.us:6969/announce
udp://tracker4.itzmx.com:2710/announce
udp://tracker.nyaa.uk:6969/announce
udp://tracker.novg.net:6969/announce
udp://tracker.iamhansen.xyz:2000/announce
udp://tracker.filepit.to:6969/announce
udp://tracker.dyn.im:6969/announce
udp://torrentclub.tech:6969/announce
udp://pubt.in:2710/announce
http://tracker.fastdownload.xyz:443/announce
http://opentracker.xyz:443/announce
http://tracker.torrentyorg.pl:80/announce
http://tracker.novg.net:6969/announce
http://torrentclub.tech:6969/announce
http://torrent.nwps.ws:80/announce
http://t.nyaatracker.com:80/announce
http://share.camoe.cn:8080/announce
http://retracker.mgts.by:80/announce
http://opentracker.xyz:80/announce
http://open.trackerlist.xyz:80/announce
http://open.acgtracker.com:1096/announce
http://fxtt.ru:80/announce
wss://tracker.openwebtorrent.com:443/announce
wss://tracker.fastcast.nz:443/announce
udp://tracker.open-tracker.org:1337/announce
udp://tracker.kamigami.org:2710/announce
udp://tracker.justseed.it:1337/announce
udp://packages.crunchbangplusplus.org:6969/announce
http://tracker.vectahosting.eu:2053/announce
http://tracker.gbitt.info:443/announce
http://1337.abcvg.info:443/announce
http://tracker.tfile.me:80/announce.php
http://tracker.open-tracker.org:1337/announce
http://tracker.gbitt.info:80/announce
http://peersteers.org:80/announce
µTorrent compatible trackers list

Download torrent
450.7 MB
seeders:9
leechers:10
Ralph.Breaks.the.Internet.2018.720p.WEB-DL.x265.HEVCBay


Torrent hash: F712F749A889C062666A39A1B1A8D8D9746BB29F